Flyleaf-Rock Index du Forum
 FAQFAQ   RechercherRechercher   MembresMembres   GroupesGroupes   S’enregistrerS’enregistrer 
 ProfilProfil   Se connecter pour vérifier ses messages privésSe connecter pour vérifier ses messages privés   ConnexionConnexion 

Poster un nouveau sujet   Répondre au sujet    Flyleaf-Rock Index du Forum -> Info -> Concerts
Sujet précédent :: Sujet suivant  
Auteur Message
laurewall


Hors ligne

Inscrit le: 09 Avr 2016
Messages: 122
Localisation: Paris

MessagePosté le: Mar 3 Mai - 22:59 (2016)    Sujet du message: Jimmy Grimble French Dvdrip Répondre en citant




Jimmy Grimble French Dvdrip > urlin.us/24nrm











ced5a5f5e9
Format : AVI Format/Info : Audio Video Interleave Format profile : OpenDML File size : 1.87 GiB Duration : 1h 41mn Overall bit rate : 2 640 Kbps Movie name : There's Only One Jimmy Grimble (2000) DVDRip XviD AC3 Soup Writing application : Lavf55.33.100 Original source form/Name : P9010DVD Video ID : 0 Format : MPEG-4 Visual Format profile : Advanced SimpleL5 Format settings, BVOP : 2 Format settings, QPel : No Format settings, GMC : No warppoints Format settings, Matrix : Default (MPEG) Muxing mode : Packed bitstream Codec ID : XVID Codec ID/Hint : XviD Duration : 1h 41mn Bit rate : 2 181 Kbps Width : 720 pixels Height : 404 pixels Display aspect ratio : 16:9 Frame rate : 25.000 fps Color space : YUV Chroma subsampling : 4:2:0 Bit depth : 8 bits Scan type : Progressive Compression mode : Lossy Bits/(Pixel*Frame) : 0.300 Stream size : 1.55 GiB (83%) Writing library : XviD 64 Audio ID : 1 Format : AC-3 Format/Info : Audio Coding 3 Mode extension : CM (complete main) Format settings, Endianness : Big Codec ID : 2000 Duration : 1h 41mn Bit rate mode : Constant Bit rate : 448 Kbps Channel(s) : 6 channels Channel positions : Front: L C R, Side: L R, LFE Sampling rate : 48.0 KHz Bit depth : 16 bits Compression mode : Lossy Stream size : 325 MiB (17%) Alignment : Aligned on interleaves Interleave, duration : 32 ms (0.80 video frame) . Quantico.S01E20. A Staple of Branding. At school he is constantly being bullied by the other kids, and at home he has to face his mother's new boyfriend who he doesn't like. Produzione: Gran Bretagna, Francia 2001 TRAMA Introverso, timido, un po' fifone, tifoso del Manchester City (contro il pi famoso Manchester United), il quindicenne Jimmy ha testa sveglia, piedi buoni, ma scarsa autostima. Peut-tre parviendrait-il entrer au centre de formation de Manchester City, l'quipe dont il est supporter.Or, un beau jour, Jimmy se voit offrir une paire de chaussures magiques qui lui permettent enfin de faire ses preuves sur le terrain.

Benino gli altri. Ju'hoanKabuverdianuKabyleKalmyk-OiratKannadaKarajKarajKazakhKhantyKhmerKikuyuKinyarwandaKirghizKirundiKlingonKonkaniKoreanKorean Sign LanguageKorowaiKrioluKruKunaKurdishKyrgyzLadakhiLadinoLaoLatinLatvianLingalaLithuanianLow GermanLuxembourgishMacedonianMalagasyMalayMalayalamMalinkaMalteseMandarinMandingoManipuriMaoriMapudungunMarathiMariMarshalleseMasaiMayaMendeMicmacMiddle EnglishMin NanMohawkMongolianMoreNahuatlNamaNavajoNaxiNeapolitanNenetsNepaliNisga'aNoneNorse, OldNorth American Ind. Cast: Robert Carlyle, Ray Winstone, Lewis McKenzie, Jane Lapotaire. GreenlandicGuaraniGujaratiGumatjGunwingguHaitianHakkaHaryanviHassanyaHausaHawaiianHebrewHindiHmongHokkienHopiHungarianIboIcelandicIndian Sign LanguageIndonesianInuktitutInupiaqIrishIrish GaelicItalianJapaneseJapanese Sign Lang. Game.Of.Thrones. html bbcode . Help us Help us!! Thanks a lots for the donation. However, through football, and some special boots, he manages to gain the confidence to succeed and leads his school football team towards the final of the local schools cup. At school he is constantly being bullied by the other kids, and at home he has to face his mother's new boyfriend who he doesn't like.

crane simulator game demo download7 secrets of shivapinoy pene movies ot 80s myrna castilloR. Kelly, Untitled full album zipfotografia alta calidad cs6 FullAdiemus, Song Of Sanctuary full album zipTimber.Frame.Construction.All.About.Post.and.Beam.Building.pdf.rarIntroduction to Vascular Ultrasonography Expert Consult Online and Print 6e Zwiebel Introduction ofPharmacotherapy: A Pathophysiologic Approach.pdfhkiaat bookkeeping and accounts exam june2008 rar


Revenir en haut
Publicité






MessagePosté le: Mar 3 Mai - 22:59 (2016)    Sujet du message: Publicité

PublicitéSupprimer les publicités ?
Revenir en haut
Montrer les messages depuis:   
Poster un nouveau sujet   Répondre au sujet    Flyleaf-Rock Index du Forum -> Info -> Concerts Toutes les heures sont au format GMT + 2 Heures
Page 1 sur 1

 
Sauter vers:  

Index | Panneau d’administration | faire son forum | Forum gratuit d’entraide | Annuaire des forums gratuits | Signaler une violation | Conditions générales d'utilisation
Powered by phpBB © 2001, 2018 phpBB Group
Traduction par : phpBB-fr.com
Template created by cogeek